GD Star Rating
loading...

товарищи, помогите расковырять плеер.
Собственно в чём проблема – плеер (это пикопроектор) читает только mp4 h264. но! далеко не все. я бы даже сказал – только то что записал и только то что конверчено родным конвертером.
всё бы и пофиг, но
1) родной конвертер оооочень медленный
и
2) родной конвертер делает рассинхронизацию с аудиодорожкой
второе, как понятно, весьма критично 🙂
файлик-пример
тыц

подскажите и с какими настроейками конвертить в ЭТО?

19 Responses to товарищи, помогите расковырять плеер.

  1. Dniblack:

    Блин, ты б сказал хоть чо за модель плеера.

  2. Riaodin:

    : Aiptek PocketCinema Z20 вестимо. много чего сказало? )

    вопрос даже не так, а вот – как расковырять видеофайл чтобы с точностью до каждого параметра кодирования?

  3. Relenko:

    VLC:
    avcodec debug: libavcodec initialized (interface 0x360a64)
    avcodec debug: trying to use direct rendering
    avcodec debug: allowing 4 thread(s) for decoding
    avcodec debug: ffmpeg codec (H264 – MPEG-4 AVC (part 10)) started
    avcodec debug: using frame thread mode with 4 threads
    main debug: using decoder module “avcodec”
    main debug: TIMER module_need() : 165.120 ms – Total 165.120 ms / 1 intvls (Avg 165.120 ms)
    main debug: looking for decoder module: 31 candidates
    main debug: using decoder module “faad”

    main debug: VLC is looking for: ‘f32l’ 48000 Hz Stereo frame=1 samples/8 bytes

    Полный лог:
    https://gist.github.com/7a8b0a8b4564fb97

  4. Relenko:

    Для конвертации мне лично нравится MPEG Streamclip, по крайней мере под Mac он отличный, под Win тоже есть версия.
    http://www.squared5.com/

  5. Dniblack:

    : Попробуй кодировать звук в LC-AAC 64 кбит/с, 48 кГц.
    А видео в AVC Main profile Level 4.0 с разрешением не более 1280х720.
    Кодить можно с помощью MediaCoder. Он позволяет настраивать много различных параметров кодирования.

  6. Ag3white:

    Вот из MediaInfo к-лайтовского инфа:

    General
    Complete name : CLIP0001.MP4
    Format : MPEG-4
    Format profile : Sony PSP
    Codec ID : MSNV
    File size : 3.41 MiB
    Duration : 5s 105ms
    Overall bit rate : 5 609 Kbps
    Encoded date : UTC 2012-04-10 17:50:53
    Tagged date : UTC 2012-04-10 17:50:53

    Video
    ID : 1
    Format : AVC
    Format/Info : Advanced Video Codec
    Format profile : [email protected]
    Format settings, CABAC : Yes
    Format settings, ReFrames : 1 frame
    Format settings, GOP : M=1, N=8
    Codec ID : avc1
    Codec ID/Info : Advanced Video Coding
    Duration : 5s 105ms
    Bit rate mode : Variable
    Bit rate : 5 537 Kbps
    Width : 1 280 pixels
    Height : 720 pixels
    Display aspect ratio : 16:9
    Frame rate mode : Constant
    Frame rate : 29.970 fps
    Color space : YUV
    Chroma subsampling : 4:2:0
    Bit depth : 8 bits
    Scan type : Progressive
    Bits/(Pixel*Frame) : 0.200
    Stream size : 3.37 MiB (99:
    Language : Japanese
    Encoded date : UTC 2012-04-10 17:50:53
    Tagged date : UTC 2012-04-10 17:50:53

    Audio
    ID : 2
    Format : AAC
    Format/Info : Advanced Audio Codec
    Format profile : LC
    Codec ID : 40
    Duration : 5s 99ms
    Bit rate mode : Constant
    Bit rate : 64.0 Kbps
    Channel(s) : 2 channels
    Channel positions : Front: L R
    Sampling rate : 48.0 KHz
    Compression mode : Lossy
    Stream size : 40.2 KiB (1:
    Language : Japanese
    Encoded date : UTC 2012-04-10 17:50:53
    Tagged date : UTC 2012-04-10 17:50:53

  7. Riaodin:

    : Format profile : Sony PSP

    очень интересно, ща потещу

  8. Riaodin:

    : неа, не жрёт скотина pspшные(

  9. Riaodin:

    люди, помогите с настройками для авидемукса чтобы эта блядина результат играла! а то я ей богу разъебу об стенку скоро! (((

  10. Dniblack:

    : И не будет.
    Я же тебе выше написал с какими параметрами видео кодировать.

  11. Riaodin:

    : если ты ещё скажешь где в твоей софтине эти параметры выставить – цены тебе не будет…

  12. Dniblack:

    : Там нет возможности выбрать готовый профиль для кодирования. Все задается разными настройками, которые и будут (или не будут) удовлетворять какому либо профилю AVC.
    Используй MediaCoder.

  13. Riaodin:

    : я про медиакодер и спрашиваю. я там вообще не нашёл “AVC Main profile Level 4.0”

  14. Dniblack:

    : Вот как то так:

    Hardblog.net - linux nix windows image

  15. Riaodin:

    : попробовал с этими параметрами. плеер не виснет (как со многими другими), но и не показывает ничего, и таймер времени не идёт

  16. Dniblack:

    : Попробуй Ref. Frames установить в 1.
    Если не поможет жми на Advanced и убери все кроме Use CABAC.

  17. Dniblack:

    : Попробуй еще уменьшить GOP до 15.
    В общем, поиграй с настройками.

  18. Riaodin:

    : попробовал и то и то и то
    та же фигня…

Добавить комментарий